<?xml version="1.0" standalone="no"?> <!DOCTYPE svg PUBLIC "-//W3C//DTD SVG 1.0//EN" "http://www.w3.org/TR/2001/REC-SVG-20010904/DTD/svg10.dtd" > <svg xmlns="http://www.w3.org/2000/svg" width="100%" height="100%">
<defs >
<font id="myriadproblackcondensed0" horiz-adv-x="365" ><font-face
    font-family="Myriad Pro"
    units-per-em="1000"
    panose-1="2 0 9 6 6 0 0 2 0 4"
    ascent="704"
    descent="-200"
    alphabetic="0" />
<missing-glyph horiz-adv-x="500" d="M0 700H500V0H0V700ZM420 650H80L250 395L420 650ZM450 95V605L280 350L450 95ZM420 50L250 305L80 50H420ZM50 95L220 350L50 605V95Z" />
<glyph unicode=" " glyph-name="space" horiz-adv-x="160" />
<glyph unicode="!" glyph-name="exclam" horiz-adv-x="250" d="M59 233L41 674H209L191 233H59ZM125 -8Q89 -8 64 18T39 83Q39 125 64 150T125 176Q162 176 186 151T211 83Q211 44 188 18T126 -8H125Z" />
<glyph unicode="&quot;" glyph-name="quotedbl" horiz-adv-x="340" d="M146 684L122 413H49L25 684H146ZM316 684L292 413H219L195 684H316Z" />
<glyph unicode="#" glyph-name="numbersign" horiz-adv-x="444" d="M251 278L263 377H194L182 278H251ZM62 0L87 193H12V278H98L110 377H33V462H121L144 650H228L205 462H274L297 650H381L358 462H432V377H347L335 278H412V193H324L300 0H215L240 193H171L147 0H62Z" />
<glyph unicode="$" glyph-name="dollar" horiz-adv-x="444" d="M162 -85V17Q130 19 103 25T56 40L77 161Q100 149 125 142T182 135Q215 135 231 149T248 186Q248 212 230 232T175 276Q110 316 84 356T57 454Q57 509 88 554T180 621V725H278V633Q307 632 332 625T378
608L354 491Q337 500 318 507T268 515Q235 515 218 501T201 464Q201 455 203 447T213 430T236 409T277 381Q343 341 367 297T391 200Q391 134 356 89T260 27V-85H162Z" />
<glyph unicode="%" glyph-name="percent" horiz-adv-x="662" d="M150 658Q190 658 215 638T254 589T273 525T279 461Q279 409 268 371T239 308T197 271T148 258Q110 258 85 276T43 324T20 387T13 455Q13 491 21 527T46 593T88 640T149 658H150ZM146 579Q132 579
123 552T113 459Q112 391 121 364T148 337Q164 337 171 364T179 457Q179 519 172 549T147 579H146ZM116 -8L469 658H545L193 -8H116ZM520 395Q560 395 585 375T624 326T643 262T649 198Q649 146 638 108T609 45T567 8T518 -5Q480 -5 455 13T413 61T390 124T383
192Q383 228 391 264T416 330T458 377T519 395H520ZM516 316Q502 316 493 289T483 196Q482 128 491 101T518 74Q534 74 541 101T549 194Q549 256 542 286T517 316H516Z" />
<glyph unicode="&amp;" glyph-name="ampersand" horiz-adv-x="546" d="M381 0Q374 9 368 17T355 36Q328 16 291 4T209 -8Q164 -8 129 6T68 45T29 106T15 182Q15 246 44 290T122 363V365Q93 402 83 439T72 509Q72 545 84 576T121 631T178 668T254 682Q290 682 320
671T371 638T403 589T415 526Q415 504 411 482T395 438T360 392T298 342V337Q310 320 322 302T347 266T369 236T385 216Q400 242 404 279T410 358H539Q536 321 528 287T508 222T482 166T450 123Q470 98 496 65T548 0H381ZM238 105Q258 105 271 110T295 125Q286
136 273 153T244 191T213 233T183 275Q172 264 164 246T155 202Q155 161 178 133T237 105H238ZM249 582Q229 582 218 563T207 515Q207 489 214 468T238 424Q267 447 277 470T287 519Q287 529 286 540T280 560T269 576T250 582H249Z" />
<glyph unicode="&apos;" glyph-name="quotesingle" horiz-adv-x="170" d="M146 684L122 413H49L25 684H146Z" />
<glyph unicode="(" glyph-name="parenleft" horiz-adv-x="260" d="M247 692Q225 658 206 617T172 525T149 415T140 284Q140 216 148 158T171 50T205 -42T247 -120H138Q116 -92 95 -52T58 39T31 151T20 285Q22 358 32 420T59 533T95 623T138 692H247Z" />
<glyph unicode=")" glyph-name="parenright" horiz-adv-x="260" d="M13 -120Q35 -85 54 -43T88 50T111 160T120 289Q120 357 112 415T89 524T55 615T13 692H122Q144 665 165 626T202 537T229 425T240 288Q238 214 228 152T201 39T165 -51T122 -120H13Z" />
<glyph unicode="*" glyph-name="asterisk" horiz-adv-x="390" d="M340 629L235 513L236 510L379 539V435L235 466L233 463L339 350L242 297L192 447L190 443L134 297L49 350L154 469L151 470L11 435V539L150 510L153 513L49 628L144 682L194 536H197L246 682L340 629Z" />
<glyph unicode="+" glyph-name="plus" horiz-adv-x="596" d="M346 532V314H556V220H346V0H250V220H40V314H250V532H346Z" />
<glyph unicode="," glyph-name="comma" horiz-adv-x="250" d="M7 -125Q31 -54 50 19T78 156L231 166Q206 95 175 22T104 -115L7 -125Z" />
<glyph unicode="-" glyph-name="hyphen" horiz-adv-x="250" d="M220 337V228H30V337H220Z" />
<glyph unicode="." glyph-name="period" horiz-adv-x="250" d="M134 -8Q99 -8 74 19T48 91Q48 135 74 163T136 191Q171 191 197 165T223 91Q223 46 199 19T135 -8H134Z" />
<glyph unicode="/" glyph-name="slash" horiz-adv-x="280" d="M-35 -40L208 682H305L62 -40H-35Z" />
<glyph unicode="0" glyph-name="zero" horiz-adv-x="444" d="M223 -8Q163 -8 125 22T63 101T31 207T22 321Q22 386 33 446T68 554T132 629T226 658Q269 658 300 643T353 602T388 543T409 473T419 399T422 329Q422 242 407 179T364 74T301 12T224 -8H223ZM226 124Q238
124 245 135T258 170T265 232T267 325Q267 426 259 476T226 526Q202 526 189 481T177 325Q176 269 178 231T187 169T202 135T225 124H226Z" />
<glyph unicode="1" glyph-name="one" horiz-adv-x="444" d="M175 507H173L62 453L37 574L191 650H328V0H175V507Z" />
<glyph unicode="2" glyph-name="two" horiz-adv-x="444" d="M21 0V105L90 191Q123 231 149 266T195 332T225 393T236 453Q236 486 216 508T157 530Q128 530 103 521T58 499L33 619Q58 634 99 646T185 658Q244 658 283 641T345 596T378 534T388 465Q388 419 375
380T342 305T295 238T241 178L204 138V136H395V0H21Z" />
<glyph unicode="3" glyph-name="three" horiz-adv-x="444" d="M42 142Q63 130 89 124T140 117Q187 117 210 140T233 196Q233 221 223 238T197 265T159 281T115 286H97V398H109Q127 398 146 401T180 413T205 434T215 468Q215 497 196 514T144 532Q100 532 62 509L44
625Q65 638 104 648T185 658Q231 658 266 645T323 609T357 558T369 498Q369 449 344 412T277 355V353Q326 335 356 293T387 190Q387 154 373 119T329 55T256 10T156 -8Q113 -8 79 0T23 20L42 142Z" />
<glyph unicode="4" glyph-name="four" horiz-adv-x="444" d="M234 0V145H8V251L221 650H370V268H432V145H370V0H234ZM234 268V379Q234 402 236 428T241 477H238Q229 455 219 433T196 385L136 270V268H234Z" />
<glyph unicode="5" glyph-name="five" horiz-adv-x="444" d="M379 516H208L198 424H216Q225 424 240 421T272 413T306 398T338 375Q395 321 395 225Q395 178 380 136T334 62T259 11T156 -8Q119 -8 84 -1T29 17L50 139Q70 130 94 124T144 118Q192 118 217 143T243
211Q243 241 232 261T201 293T157 310T105 315Q93 315 82 315T60 313L94 650H379V516Z" />
<glyph unicode="6" glyph-name="six" horiz-adv-x="444" d="M370 534Q357 533 343 532T313 527Q255 516 223 477T177 381H181Q198 402 222 415T277 428Q310 428 338 414T385 373T416 309T427 226Q427 185 416 143T380 68T319 13T230 -8Q182 -8 144 10T78 64T36
149T21 262Q21 318 30 364T55 448T92 516T137 569Q170 601 214 622T297 651Q323 656 341 656T370 658V534ZM229 102Q245 102 254 113T267 142T273 183T274 229Q274 243 272 258T264 287T249 310T225 319Q199 319 185 287Q178 273 178 222Q178 198 181 176T190 138T206
112T228 102H229Z" />
<glyph unicode="7" glyph-name="seven" horiz-adv-x="444" d="M412 650V547L210 0H60L256 512V514H40V650H412Z" />
<glyph unicode="8" glyph-name="eight" horiz-adv-x="444" d="M232 658Q266 658 298 648T356 617T396 566T411 495Q411 481 408 464T396 427T371 390T327 355V353Q372 331 399 288T426 187Q426 139 409 103T364 42T298 5T219 -8Q177 -8 140 4T76 39T33 96T17 174Q17
231 43 273T111 341V343Q69 370 52 408T34 483Q34 524 49 556T92 611T154 646T231 658H232ZM224 94Q239 94 249 101T265 121T274 149T277 181Q277 202 271 219T255 250T234 273T210 288Q191 274 179 249T166 189Q166 152 180 123T223 94H224ZM226 557Q212 557 203
551T189 534T181 511T178 486Q178 458 192 436T235 400Q252 407 261 431T271 481Q271 494 269 508T262 532T249 550T227 557H226Z" />
<glyph unicode="9" glyph-name="nine" horiz-adv-x="444" d="M77 119Q99 119 111 120T142 124Q159 127 177 135T213 158Q231 174 246 202T270 266H267Q252 251 231 242T180 232Q148 232 119 245T69 284T35 346T22 427Q22 467 35 508T74 583T138 637T228 658Q275
658 311 639T372 584T409 499T422 388Q422 330 413 282T387 193T350 122T306 69Q275 39 233 20T141 -6Q125 -8 110 -8T77 -8V119ZM219 548Q196 548 184 518T174 439Q174 421 177 403T186 369T201 345T223 336Q237 336 247 344T260 359Q264 369 265 385T266 441Q266
489 254 518T220 548H219Z" />
<glyph unicode=":" glyph-name="colon" horiz-adv-x="250" d="M134 303Q99 303 75 329T51 397Q51 437 76 464T136 492Q171 492 195 467T220 397Q220 355 197 329T135 303H134ZM134 -8Q99 -8 75 18T51 86Q51 126 76 153T136 181Q171 181 195 156T220 86Q220 44
197 18T135 -8H134Z" />
<glyph unicode=";" glyph-name="semicolon" horiz-adv-x="250" d="M8 -125Q32 -54 51 19T79 156L227 166Q202 95 171 22T100 -115L8 -125ZM136 303Q101 303 77 329T53 397Q53 437 78 464T138 492Q173 492 197 467T222 397Q222 355 199 329T137 303H136Z" />
<glyph unicode="&lt;" glyph-name="less" horiz-adv-x="596" d="M54 300L542 532V415L205 266V264L542 116V0L54 232V300Z" />
<glyph unicode="=" glyph-name="equal" horiz-adv-x="596" d="M40 313V407H556V313H40ZM40 127V221H556V127H40Z" />
<glyph unicode="&gt;" glyph-name="greater" horiz-adv-x="596" d="M542 215L54 0V114L431 265V267L54 418V532L542 317V215Z" />
<glyph unicode="?" glyph-name="question" horiz-adv-x="345" d="M81 222L79 242Q74 286 92 324T137 403Q157 432 165 454T173 499Q173 521 158 537T111 553Q96 553 80 550T48 536L24 655Q41 666 75 676T148 686Q203 686 238 670T293 630T322 578T330 525Q330
474 307 431T257 351Q237 324 225 299T211 246L210 222H81ZM148 -8Q112 -8 88 18T63 83Q63 125 89 150T148 176Q185 176 209 151T234 83Q234 44 211 18T149 -8H148Z" />
<glyph unicode="@" glyph-name="at" horiz-adv-x="635" d="M368 355Q360 360 343 360Q330 360 316 349T289 316T268 265T259 196Q259 173 266 159T292 144Q302 144 311 151T327 171T340 199T348 232L368 355ZM450 -57Q408 -80 369 -89T286 -98Q239 -98 193 -79T111
-21T53 75T30 207Q30 279 52 348T117 471T220 558T356 592Q420 592 467 569T545 509T590 423T605 325Q605 200 563 133T445 65Q403 65 385 88T365 152H362Q348 114 319 90T252 65Q210 65 187 99T164 189Q164 238 178 281T219 357T283 409T368 428Q395 428 423 422T470
404L439 228Q430 174 438 150T470 126Q484 126 497 136T522 170T540 228T547 314Q547 360 536 402T499 476T436 526T344 545Q296 545 250 521T168 453T110 347T88 208Q88 143 105 95T151 14T218 -33T301 -49Q335 -49 368 -40T434 -12L450 -57Z" />
<glyph unicode="A" glyph-name="A" horiz-adv-x="468" d="M175 133L152 0H2L145 674H333L456 0H306L284 133H175ZM272 252L255 380Q253 394 251 414T246 455T240 496T235 533H233Q230 517 227 497T221 455T215 413T210 380L190 252H272Z" />
<glyph unicode="B" glyph-name="B" horiz-adv-x="512" d="M57 664Q89 671 131 674T222 677Q269 677 316 669T402 629Q431 605 443 572T456 503Q456 461 434 421T361 357V353Q390 344 412 329T448 292T470 247T478 197Q478 155 465 123T428 65Q397 32 341 13T188
-6Q150 -6 117 -4T57 2V664ZM211 401H236Q267 401 286 425T305 485Q305 518 290 540T243 563Q222 563 211 559V401ZM211 114Q217 112 223 112T236 112Q268 112 293 133T318 199Q318 242 294 264T237 287H211V114Z" />
<glyph unicode="C" glyph-name="C" horiz-adv-x="404" d="M392 9Q378 3 351 -1T289 -6Q218 -6 167 21T84 94T37 200T22 326Q22 419 47 486T112 596T204 659T308 680Q345 680 369 674T403 662L379 532Q368 537 355 541T321 545Q292 545 268 533T225 496T197 430T186
333Q186 227 223 179T319 131Q333 131 350 133T379 139L392 9Z" />
<glyph unicode="D" glyph-name="D" horiz-adv-x="511" d="M57 664Q83 669 121 673T203 677Q272 677 320 661T403 613Q448 571 468 504T489 342Q489 245 464 172T390 56Q355 25 303 10T175 -6Q140 -6 109 -3T57 2V664ZM211 122Q215 120 221 120T232 120Q252 120
270 132T301 172T321 242T329 349Q329 443 306 498T233 554Q227 554 222 554T211 551V122Z" />
<glyph unicode="E" glyph-name="E" horiz-adv-x="412" d="M359 286H212V134H377V0H57V674H366V540H212V414H359V286Z" />
<glyph unicode="F" glyph-name="F" horiz-adv-x="412" d="M57 674H366V540H212V394H357V266H212V0H57V674Z" />
<glyph unicode="G" glyph-name="G" horiz-adv-x="488" d="M449 18Q438 14 421 10T384 2T342 -4T301 -6Q237 -6 191 11T112 61Q65 106 43 178T22 335Q23 424 48 489T115 596T210 659T322 680Q364 680 393 674T438 659L413 526Q383 541 336 541Q302 541 274 530T226
492T194 423T183 321Q183 268 192 231T217 170T252 135T291 124Q296 124 300 124T308 126V263H259V389H449V18Z" />
<glyph unicode="H" glyph-name="H" horiz-adv-x="538" d="M212 674V412H326V674H481V0H326V268H212V0H57V674H212Z" />
<glyph unicode="I" glyph-name="I" horiz-adv-x="269" d="M212 674V0H57V674H212Z" />
<glyph unicode="J" glyph-name="J" horiz-adv-x="310" d="M107 674H262V226Q262 146 244 100T196 29T131 -1T59 -8Q36 -8 17 -5T-14 3L-1 133Q18 127 44 127Q56 127 67 130T87 143T101 171T107 218V674Z" />
<glyph unicode="K" glyph-name="K" horiz-adv-x="482" d="M57 674H211V378H214Q221 400 228 422T243 468L317 674H487L342 378L488 0H319L238 259L211 208V0H57V674Z" />
<glyph unicode="L" glyph-name="L" horiz-adv-x="395" d="M57 674H212V131H377V0H57V674Z" />
<glyph unicode="M" glyph-name="M" horiz-adv-x="653" d="M471 212Q469 253 467 308T465 418H463Q459 391 454 363T443 309T433 260T425 222L377 14H265L219 222Q216 237 211 259T202 308T192 363T184 418H182Q180 364 177 309T171 212L160 0H29L81 674H243L286
458Q299 395 311 336T331 220H333Q340 276 350 335T373 458L416 674H577L619 0H482L471 212Z" />
<glyph unicode="N" glyph-name="N" horiz-adv-x="538" d="M57 0V674H198L293 432Q299 416 308 393T326 346T344 296T359 252H361Q359 273 357 306T352 381T348 470T346 565V674H481V0H340L249 227Q241 246 232 271T214 323T197 374T185 418H183Q185 374 188 295T192
116V0H57Z" />
<glyph unicode="O" glyph-name="O" horiz-adv-x="496" d="M246 -8Q182 -8 139 22T70 102T33 214T22 339Q22 402 35 463T77 573T150 652T255 682Q324 682 366 649T433 565T465 458T474 352Q474 256 458 188T411 77T340 13T247 -8H246ZM251 126Q283 126 298 183T313
344Q313 387 310 424T300 489T280 532T250 548Q233 548 221 533T200 489T187 424T183 341Q181 239 198 183T250 126H251Z" />
<glyph unicode="P" glyph-name="P" horiz-adv-x="482" d="M57 664Q87 670 126 673T205 677Q269 677 318 667T403 624Q435 596 449 556T464 473Q464 414 447 372T400 300Q383 284 363 273T320 255T276 244T234 240H211V0H57V664ZM211 365Q216 364 220 364T229 364Q252
364 268 372T293 393T307 423T311 459Q311 500 294 526T239 553Q223 553 211 548V365Z" />
<glyph unicode="Q" glyph-name="Q" horiz-adv-x="496" d="M458 -118Q413 -99 367 -75T277 -24Q265 -17 257 -13T243 -8Q190 -8 149 16T80 86T37 195T22 339Q22 400 35 461T77 571T150 651T256 682Q325 682 367 649T434 565T466 458T474 352Q474 231 449 155T379
53V48Q411 34 445 22T512 -3L458 -118ZM251 126Q281 126 297 181T313 344Q313 438 299 493T250 548Q220 548 201 492T183 341Q181 236 198 181T250 126H251Z" />
<glyph unicode="R" glyph-name="R" horiz-adv-x="497" d="M57 664Q91 670 131 673T214 677Q269 677 320 667T406 626Q439 597 450 562T462 482Q462 432 437 386T360 316V314Q393 299 411 269T438 188Q442 163 448 134T460 79T472 31T483 0H321Q318 7 314 22T305
59T296 106T288 159Q280 219 266 238T226 258H211V0H57V664ZM211 377H231Q269 377 287 404T306 469Q306 506 291 530T239 557Q231 557 224 556T211 553V377Z" />
<glyph unicode="S" glyph-name="S" horiz-adv-x="409" d="M42 154Q64 142 97 135T159 128Q203 128 223 145T243 188Q243 219 222 238T156 284Q115 308 90 333T52 384T34 431T29 473Q29 515 42 552T84 618T155 663T257 680Q292 680 322 673T368 656L346 523Q331
532 309 539T258 546Q219 546 200 529T181 488Q181 477 184 468T197 448T224 425T271 397Q341 358 368 308T395 205Q395 157 378 119T330 52T255 9T158 -6Q114 -6 77 2T22 20L42 154Z" />
<glyph unicode="T" glyph-name="T" horiz-adv-x="410" d="M127 530H10V674H400V530H282V0H127V530Z" />
<glyph unicode="U" glyph-name="U" horiz-adv-x="518" d="M207 674V242Q207 209 211 187T222 151T239 133T259 127Q270 127 279 131T296 149T307 184T311 242V674H466V270Q466 140 417 66T260 -8Q201 -8 161 12T97 68T63 157T52 272V674H207Z" />
<glyph unicode="V" glyph-name="V" horiz-adv-x="465" d="M144 0L-5 674H167L207 394Q215 340 222 284T236 171H238Q244 229 250 285T264 397L302 674H473L320 0H144Z" />
<glyph unicode="W" glyph-name="W" horiz-adv-x="690" d="M119 0L10 674H171L193 430Q198 374 202 316T212 196H214Q222 258 231 314T251 430L293 674H417L454 430Q462 374 469 318T483 196H485Q490 259 495 315T506 430L529 674H680L567 0H405L376 174Q368 219
362 275T348 396H346Q336 333 328 277T309 174L273 0H119Z" />
<glyph unicode="X" glyph-name="X" horiz-adv-x="414" d="M266 0L232 108Q222 138 214 167T198 228H196Q189 196 182 166T168 105L142 0H-10L110 345L-5 674H156L186 563Q194 535 200 508T213 454H215Q222 483 228 509T240 564L265 674H419L295 336L426 0H266Z" />
<glyph unicode="Y" glyph-name="Y" horiz-adv-x="405" d="M122 0V246L-26 674H139L179 517Q187 485 194 450T208 378H210Q219 451 234 520L266 674H426L277 252V0H122Z" />
<glyph unicode="Z" glyph-name="Z" horiz-adv-x="400" d="M7 90L213 536V539H27V674H387V558L193 138V135H386V0H7V90Z" />
<glyph unicode="[" glyph-name="bracketleft" horiz-adv-x="260" d="M40 -112V686H240V588H155V-14H240V-112H40Z" />
<glyph unicode="\" glyph-name="backslash" horiz-adv-x="220" d="M158 -40L-25 682H72L255 -40H158Z" />
<glyph unicode="]" glyph-name="bracketright" horiz-adv-x="260" d="M220 686V-112H20V-14H105V588H20V686H220Z" />
<glyph unicode="^" glyph-name="asciicircum" horiz-adv-x="596" d="M445 172L300 522H294L149 172H36L250 650H346L560 172H445Z" />
<glyph unicode="_" glyph-name="underscore" horiz-adv-x="500" d="M500 -75V-125H0V-75H500Z" />
<glyph unicode="`" glyph-name="grave" horiz-adv-x="300" d="M154 692L219 550H123L24 692H154Z" />
<glyph unicode="a" glyph-name="a" horiz-adv-x="447" d="M404 113Q404 83 405 55T412 0H274L266 47H264Q242 18 213 5T151 -8Q122 -8 97 3T54 35T26 84T16 145Q16 194 36 229T90 286T164 319T247 330V339Q247 359 230 373T182 387Q150 387 124 379T74 357L47
460Q70 472 114 486T216 500Q280 500 317 480T374 427T398 357T404 283V113ZM252 233Q235 233 219 229T190 217T169 195T161 162Q161 130 175 117T203 104Q215 104 228 110T249 133Q252 140 252 153V233Z" />
<glyph unicode="b" glyph-name="b" horiz-adv-x="468" d="M42 692H196V445H198Q215 468 238 484T300 500Q339 500 365 480T409 427T433 351T441 263Q441 135 396 64T276 -8Q249 -8 226 4T180 55H178L170 0H38Q40 38 41 78T42 157V692ZM196 177Q196 167 198 159T202
145Q213 118 235 118Q262 118 275 150T288 250Q288 370 235 370Q224 370 216 363T202 343Q200 338 198 329T196 314V177Z" />
<glyph unicode="c" glyph-name="c" horiz-adv-x="332" d="M329 7Q320 3 297 -1T244 -6Q145 -6 86 57T27 240Q27 299 44 346T93 428T169 480T266 498Q291 498 310 494T339 486L321 366Q313 368 302 370T275 373Q232 373 206 340T180 246Q180 187 204 153T272 119Q298
119 318 128L329 7Z" />
<glyph unicode="d" glyph-name="d" horiz-adv-x="468" d="M425 692V157Q425 118 426 79T429 0H296L288 53H286Q272 27 244 10T184 -8Q141 -8 111 14T63 71T36 152T27 245Q27 309 40 356T75 436T127 484T189 500Q224 500 242 486T269 454H271V692H425ZM271 302Q271
308 271 315T269 329Q265 345 258 357T233 370Q219 370 209 360T193 333T183 292T180 241Q180 174 196 146T233 118Q256 118 266 143Q271 155 271 173V302Z" />
<glyph unicode="e" glyph-name="e" horiz-adv-x="444" d="M176 182Q178 148 204 129T275 110Q304 110 329 115T374 126L393 16Q366 6 327 0T247 -6Q141 -6 84 55T27 234Q27 297 43 346T88 430T155 482T237 500Q318 500 367 443T416 261Q416 229 415 211T411 182H176ZM277
289Q277 307 275 325T268 357T254 380T229 389Q214 389 204 380T188 355T179 323T176 289H277Z" />
<glyph unicode="f" glyph-name="f" horiz-adv-x="311" d="M68 0V384H0V492H68V507Q68 550 79 586T122 653Q144 675 175 687T248 700Q276 700 297 697T334 689L319 569Q302 575 279 575Q250 575 237 556T223 511V492H306V384H223V0H68Z" />
<glyph unicode="g" glyph-name="g" horiz-adv-x="468" d="M427 52Q427 -20 411 -67T363 -145Q334 -171 293 -185T191 -200Q118 -200 62 -177L89 -59Q109 -68 132 -73T184 -79Q235 -79 254 -49T273 27V48H271Q258 27 235 16T185 4Q140 4 110 26T62 82T36 158T28
240Q28 298 40 346T75 428T129 481T198 500Q223 500 247 488T288 444H290L298 492H432Q430 454 429 414T427 335V52ZM273 308Q273 318 271 327T267 344Q259 370 237 370Q221 370 210 360T193 332T183 292T180 243Q180 185 194 155T234 124Q255 124 266 145Q270
152 271 161T273 181V308Z" />
<glyph unicode="h" glyph-name="h" horiz-adv-x="481" d="M42 692H197V441H199Q216 465 242 482Q256 490 274 495T309 500Q347 500 372 484T412 440T433 372T439 286V0H284V291Q284 307 283 321T277 346T264 363T243 370Q231 370 221 364T203 337Q201 332 199
320T197 300V0H42V692Z" />
<glyph unicode="i" glyph-name="i" horiz-adv-x="239" d="M42 0V492H197V0H42ZM116 543Q85 543 63 565T42 623Q41 661 64 682T118 704Q150 704 172 683T194 623Q195 588 172 566T117 543H116Z" />
<glyph unicode="j" glyph-name="j" horiz-adv-x="240" d="M-43 -78Q-26 -76 -9 -72T20 -56Q34 -43 38 -16T42 63V492H197V37Q197 -47 178 -91T125 -160Q110 -171 92 -178T52 -190T9 -197T-33 -200L-43 -78ZM117 543Q86 543 64 565T43 623Q42 661 65 682T119 704Q151
704 173 683T195 623Q196 588 173 566T118 543H117Z" />
<glyph unicode="k" glyph-name="k" horiz-adv-x="438" d="M196 282H198Q205 306 210 323T222 356L271 492H438L323 286L442 0H270L216 189L196 148V0H42V692H196V282Z" />
<glyph unicode="l" glyph-name="l" horiz-adv-x="239" d="M42 692H197V0H42V692Z" />
<glyph unicode="m" glyph-name="m" horiz-adv-x="706" d="M42 335Q42 374 41 414T38 492H172L180 436H182Q202 462 233 481T302 500Q347 500 373 482T411 436H413Q422 449 435 461T464 483Q495 500 533 500Q569 500 594 486T634 447T657 385T664 306V0H510V282Q510
321 504 346T474 372Q446 372 434 340Q430 330 430 309V0H276V302Q276 312 276 324T272 347T261 365T241 372Q230 372 220 365T202 343Q200 338 198 329T196 308V0H42V335Z" />
<glyph unicode="n" glyph-name="n" horiz-adv-x="481" d="M42 335Q42 374 41 414T38 492H171L179 436H181Q201 465 233 482T303 500Q342 500 368 485T410 444T432 384T439 309V0H284V304Q284 330 276 350T244 370Q219 370 205 341Q202 334 200 322T197 295V0H42V335Z" />
<glyph unicode="o" glyph-name="o" horiz-adv-x="452" d="M227 -8Q178 -8 141 9T79 60T40 139T27 244Q27 310 44 358T89 437T153 484T228 500Q276 500 313 482T374 430T412 350T425 248Q425 169 405 119T354 41T290 3T228 -8H227ZM230 108Q242 108 250 120T263
151T270 196T272 247Q272 271 270 295T263 339T250 371T228 384Q213 384 204 372T190 340T182 296T180 247Q180 183 191 146T229 108H230Z" />
<glyph unicode="p" glyph-name="p" horiz-adv-x="468" d="M42 335Q42 374 41 413T38 492H171L179 437H181Q195 463 221 481T284 500Q328 500 358 478T406 420T432 339T440 246Q440 181 427 134T391 55T339 8T277 -8Q249 -8 229 6T198 36H196V-192H42V335ZM196
179Q196 151 204 137Q216 118 234 118Q248 118 258 128T274 156T284 196T287 245Q287 313 273 341T236 370Q225 370 217 365T203 348Q199 341 198 332T196 314V179Z" />
<glyph unicode="q" glyph-name="q" horiz-adv-x="468" d="M272 39H270Q254 18 231 5T177 -8Q139 -8 112 13T65 67T37 144T28 233Q28 294 40 343T75 427T129 481T198 500Q223 500 247 488T288 443L290 441L298 492H430Q428 454 427 414T426 335V-192H272V39ZM272
313Q272 319 271 327T267 341Q262 357 253 363T233 370Q209 370 195 339T181 245Q181 182 195 150T233 118Q244 118 253 125T266 145Q272 158 272 173V313Z" />
<glyph unicode="r" glyph-name="r" horiz-adv-x="314" d="M42 335Q42 374 41 414T38 492H171L179 422H183Q201 464 227 482T278 500Q290 500 297 500T311 497V345Q303 347 296 347T277 347Q270 347 261 345T241 337T220 320T204 291Q201 283 199 270T197 240V0H42V335Z" />
<glyph unicode="s" glyph-name="s" horiz-adv-x="339" d="M42 134Q57 125 83 117T135 108Q180 108 180 140Q180 156 168 166T125 194Q92 212 73 230T43 267T29 303T25 336Q25 370 37 400T71 452T125 487T198 500Q230 500 255 494T303 478L279 366Q265 374 247
379T209 385Q186 385 176 376T166 352Q166 339 177 329T222 300Q252 284 271 266T301 229T316 191T320 153Q320 76 270 35T135 -6Q103 -6 69 1T17 22L42 134Z" />
<glyph unicode="t" glyph-name="t" horiz-adv-x="336" d="M223 625V492H320V384H223V188Q223 168 227 155T238 135T254 124T272 121Q282 121 290 121T308 124V3Q293 -1 270 -3T218 -6Q187 -6 161 1T115 26Q92 46 80 79T68 174V384H11V492H68V580L223 625Z" />
<glyph unicode="u" glyph-name="u" horiz-adv-x="476" d="M430 157Q430 118 431 78T434 0H301L293 52H291Q271 24 242 8T174 -8Q101 -8 70 44T38 199V492H193V215Q193 170 203 146T235 121Q244 121 252 125T266 141Q275 155 275 182V492H430V157Z" />
<glyph unicode="v" glyph-name="v" horiz-adv-x="416" d="M166 492L193 296Q198 260 203 226T213 151H215Q220 192 224 225T234 296L262 492H414L281 0H138L1 492H166Z" />
<glyph unicode="w" glyph-name="w" horiz-adv-x="638" d="M168 492L185 292Q189 251 192 216T198 146H201Q206 180 212 217T226 290L264 492H383L419 294Q427 252 432 216T442 146H444Q446 179 449 217T457 294L480 492H633L505 0H372L344 143Q337 176 331 216T320
299H318Q313 257 306 218T290 143L255 0H122L1 492H168Z" />
<glyph unicode="x" glyph-name="x" horiz-adv-x="420" d="M172 492L195 412Q202 389 207 368T216 331H218Q222 348 226 369T237 412L260 492H414L305 250L417 0H249L221 85Q209 121 201 156H199Q195 139 191 121T181 84L158 0H4L110 243L4 492H172Z" />
<glyph unicode="y" glyph-name="y" horiz-adv-x="410" d="M168 492L209 247Q212 228 215 210T220 173H222Q224 191 226 209T230 245L263 492H414L305 85Q289 25 264 -34T201 -137Q167 -175 132 -193T79 -216L35 -82Q52 -77 68 -69T98 -50Q124 -30 138 -2Q145 10
145 18Q145 23 144 27T141 36L1 492H168Z" />
<glyph unicode="z" glyph-name="z" horiz-adv-x="367" d="M19 97L125 280Q138 302 152 325T174 363V366H32V492H341V386L239 213Q225 190 211 167T189 129V126H348V0H19V97Z" />
<glyph unicode="{" glyph-name="braceleft" horiz-adv-x="260" d="M2 334Q42 334 54 349T67 384Q67 403 65 421T61 457Q59 476 57 495T55 534Q55 608 97 647T219 686H240V593H225Q198 591 186 573T173 528Q173 511 174 496T177 467Q178 453 179 440T180 414Q180
369 161 337T101 290V288Q141 275 160 243T180 163Q180 149 179 135T177 105Q175 91 174 77T173 49Q173 36 175 25T183 4T199 -11T227 -19H240V-112H216Q183 -112 154 -105T102 -79T68 -32T55 39Q55 59 57 78T61 117Q63 136 65 154T67 192Q67 200 65 208T55 224T35
237T2 242V334Z" />
<glyph unicode="|" glyph-name="bar" horiz-adv-x="226" d="M169 750V-250H57V750H169Z" />
<glyph unicode="}" glyph-name="braceright" horiz-adv-x="260" d="M258 242Q238 242 226 237T206 225T196 209T193 192Q193 173 195 155T199 117Q201 97 203 78T205 39Q205 -3 193 -32T158 -79T107 -104T44 -112H20V-19H33Q67 -16 77 3T87 49Q87 63 86 77T84
105Q82 120 81 134T80 163Q80 211 99 243T159 288V290Q119 304 100 336T80 414Q80 427 81 440T84 467Q85 481 86 496T87 528Q87 554 75 572T35 593H20V686H41Q120 686 162 647T205 534Q205 514 203 495T199 457Q197 439 195 421T193 384Q193 365 205 350T258 334V242Z"
/>
<glyph unicode="~" glyph-name="asciitilde" horiz-adv-x="596" d="M50 193Q50 247 64 282T99 338T146 367T196 376Q233 377 263 363T331 323Q349 311 360 304T380 291T395 284T408 282Q428 282 438 300T450 366H546Q550 277 516 229T416 180Q398 180 384 182T354
189T322 204T283 229Q262 243 248 252T223 267T205 275T192 277Q172 277 160 261T147 193H50Z" />
</font>
</defs>
</svg>
